<?xml version="1.0" standalone="no"?>
<!DOCTYPE svg PUBLIC "-//W3C//DTD SVG 1.1//EN" "http://www.w3.org/Graphics/SVG/1.1/DTD/svg11.dtd" >
<svg xmlns="http://www.w3.org/2000/svg">
<metadata>Generated by IcoMoon</metadata>
<defs>
<font id="zenit-icons" horiz-adv-x="1024">
<font-face units-per-em="1024" ascent="960" descent="-64" />
<missing-glyph horiz-adv-x="1024" />
<glyph unicode="&#x20;" horiz-adv-x="512" d="" />
<glyph unicode="&#xe900;" glyph-name="shopping-cart-fill" d="M718.758-5.334c41.238 0 74.669 33.427 74.669 74.666s-33.43 74.666-74.669 74.666c-41.235 0-74.666-33.427-74.666-74.666s33.43-74.666 74.666-74.666zM377.414-5.334c41.238 0 74.669 33.427 74.669 74.666s-33.43 74.666-74.669 74.666c-41.236 0-74.666-33.427-74.666-74.666s33.429-74.666 74.666-74.666zM231.921 786.561l-8.533-104.533c-1.707-20.053 14.080-36.693 34.133-36.693h653.227c17.92 0 32.854 13.653 34.134 31.573 5.546 75.52-52.054 136.96-127.574 136.96h-524.373c-4.267 18.773-12.8 36.693-26.027 51.627-21.333 22.613-51.2 35.84-81.92 35.84h-74.24c-17.493 0-32-14.507-32-32s14.507-32 32-32h74.24c13.227 0 25.6-5.547 34.56-14.933 8.96-9.813 13.227-22.613 12.373-35.84zM900.521 581.335h-654.507c-17.92 0-32.427-13.654-34.133-31.149l-15.36-185.6c-5.973-72.96 51.2-135.251 124.16-135.251h474.454c64 0 120.32 52.48 125.011 116.48l14.080 199.251c1.709 19.629-13.651 36.269-33.706 36.269z" />
<glyph unicode="&#xe901;" glyph-name="location-cross" horiz-adv-x="1067" d="M533.369-10.88c-63.147 0-126.72 23.893-176.214 71.253-125.867 121.173-264.96 314.453-212.48 544.427 47.36 208.64 229.547 302.080 388.694 302.080 0 0 0 0 0.427 0 159.147 0 341.333-93.44 388.693-302.507 52.053-229.973-87.040-422.827-212.907-544-49.493-47.36-113.067-71.253-176.213-71.253zM533.369 842.88c-124.16 0-283.734-66.133-325.974-252.16-46.080-200.96 80.213-374.187 194.56-483.84 73.814-71.253 189.44-71.253 263.254 0 113.92 109.653 240.213 282.88 194.987 483.84-42.667 186.027-202.667 252.16-326.827 252.16zM618.736 375.236c-8.107 0-16.213 2.987-22.613 9.387l-168.96 168.959c-12.375 12.373-12.375 32.853 0 45.227 12.373 12.373 32.853 12.373 45.227 0l168.96-168.959c12.373-12.373 12.373-32.853 0-45.227-6.4-5.973-14.507-9.387-22.613-9.387zM448.027 373.525c-8.107 0-16.213 2.987-22.615 9.387-12.373 12.373-12.373 32.853 0 45.227l168.962 168.961c12.373 12.373 32.853 12.373 45.227 0s12.373-32.853 0-45.227l-168.96-168.961c-6.4-6.4-14.507-9.387-22.613-9.387z" />
<glyph unicode="&#xe902;" glyph-name="close-circle" d="M512-10.667c-253.013 0-458.667 205.653-458.667 458.667s205.653 458.667 458.667 458.667c253.013 0 458.667-205.653 458.667-458.667s-205.653-458.667-458.667-458.667zM512 842.667c-217.6 0-394.667-177.067-394.667-394.667s177.067-394.667 394.667-394.667c217.6 0 394.667 177.067 394.667 394.667s-177.067 394.667-394.667 394.667zM391.226 295.236c-8.107 0-16.213 2.987-22.613 9.387-12.373 12.373-12.373 32.853 0 45.227l241.494 241.495c12.373 12.373 32.853 12.373 45.227 0s12.373-32.853 0-45.227l-241.495-241.495c-5.973-6.4-14.507-9.387-22.613-9.387zM632.721 295.236c-8.107 0-16.213 2.987-22.613 9.387l-241.494 241.495c-12.373 12.373-12.373 32.853 0 45.227s32.853 12.373 45.226 0l241.495-241.495c12.373-12.373 12.373-32.853 0-45.227-6.4-6.4-14.507-9.387-22.613-9.387z" />
<glyph unicode="&#xe903;" glyph-name="instagram_icon" horiz-adv-x="971" d="M710.872 815.357h-450.744c-78.295 0-141.992-63.683-141.992-141.978v-450.757c0-78.297 63.698-141.979 141.992-141.979h450.76c78.294 0 141.976 63.682 141.976 141.979v450.772c-0.013 78.295-63.695 141.963-141.992 141.963zM751.598 730.689l16.242 0.059v-124.534l-124.119-0.402-0.431 124.521 108.308 0.356zM380.632 523.412c23.534 32.561 61.713 53.918 104.868 53.918 43.158 0 81.334-21.357 104.839-53.918 15.31-21.252 24.484-47.246 24.484-75.406 0-71.299-58.066-129.305-129.336-129.305-71.318 0-129.323 58.006-129.323 129.305 0.016 28.16 9.158 54.154 24.468 75.406zM781.268 222.634c0-38.844-31.581-70.396-70.396-70.396h-450.744c-38.829 0-70.411 31.552-70.411 70.396v300.778h109.669c-9.468-23.297-14.79-48.742-14.79-75.406 0-110.752 90.107-200.917 200.904-200.917 110.781 0 200.888 90.165 200.888 200.917 0 26.663-5.348 52.108-14.819 75.406h109.699v-300.778z" />
<glyph unicode="&#xe904;" glyph-name="book" d="M640.009 645.119v229.547h-85.334v-229.547l42.666 21.333 42.669-21.333zM895.997 874.666h-170.666v-367.788l-128 64-128-64v367.788h-128v-853.333h554.666v853.333zM256.003 874.666h-128v-853.333h128v853.333z" />
<glyph unicode="&#xe905;" glyph-name="search_icon" d="M624.893 244.595c-56.704-39.085-125.44-61.968-199.52-61.968-194.404 0-352 157.597-352 352s157.596 352 352 352c194.403 0 352-157.596 352-352 0-74.080-22.883-142.816-61.968-199.52l235.222-235.226-90.509-90.509-235.226 235.222zM425.373 310.627c123.712 0 224 100.288 224 224s-100.288 224-224 224c-123.712 0-224-100.288-224-224s100.288-224 224-224z" />
<glyph unicode="&#xe906;" glyph-name="user" d="M512.010 458.666c117.821 0 213.331 95.514 213.331 213.335s-95.51 213.333-213.331 213.333c-117.821 0-213.334-95.512-213.334-213.333s95.514-213.335 213.334-213.335zM512.001 351.997c-213.761 0-387.841-143.36-387.841-320 0-11.946 9.387-21.331 21.333-21.331h733.013c11.946 0 21.334 9.386 21.334 21.331 0 176.64-174.080 320-387.84 320z" />
<glyph unicode="&#xe907;" glyph-name="arrow-down-fill" d="M764.522 611.041h-505.176c-40.96 0-61.44-49.494-32.427-78.507l221.014-221.012c35.413-35.418 93.013-35.418 128.426 0l221.014 221.012c28.589 29.013 8.109 78.507-32.851 78.507z" />
<glyph unicode="&#xe908;" glyph-name="menu" horiz-adv-x="1643" d="M1322.709 698.606h-1002.419c-11.082 0-21.697 4.405-29.536 12.231s-12.231 18.454-12.231 29.536c0 11.082 4.405 21.697 12.231 29.536s18.454 12.231 29.536 12.231h1002.419c11.082 0 21.697-4.405 29.537-12.231 7.83-7.83 12.231-18.454 12.231-29.536s-4.405-21.697-12.231-29.536c-7.83-7.83-18.456-12.231-29.537-12.231zM1322.709 406.232h-1002.419c-11.082 0-21.697 4.405-29.536 12.231-7.83 7.83-12.231 18.456-12.231 29.537s4.405 21.697 12.231 29.537c7.83 7.83 18.454 12.231 29.536 12.231h1002.419c11.082 0 21.697-4.405 29.537-12.231 7.83-7.83 12.231-18.456 12.231-29.537s-4.405-21.697-12.231-29.537c-7.83-7.83-18.456-12.231-29.537-12.231zM1322.709 113.861h-1002.419c-11.082 0-21.697 4.405-29.536 12.231s-12.231 18.453-12.231 29.537c0 11.082 4.405 21.697 12.231 29.535s18.454 12.231 29.536 12.231h1002.419c11.082 0 21.697-4.405 29.537-12.231 7.83-7.83 12.231-18.453 12.231-29.535 0-11.084-4.405-21.697-12.231-29.537-7.83-7.83-18.456-12.231-29.537-12.231z" />
<glyph unicode="&#xe90a;" glyph-name="info-circle" d="M512-10.667c-253.013 0-458.667 205.653-458.667 458.667s205.653 458.667 458.667 458.667c253.013 0 458.667-205.653 458.667-458.667s-205.653-458.667-458.667-458.667zM512 842.667c-217.6 0-394.667-177.067-394.667-394.667s177.067-394.667 394.667-394.667c217.6 0 394.667 177.067 394.667 394.667s-177.067 394.667-394.667 394.667zM512 373.333c-17.493 0-32 14.507-32 32v213.333c0 17.493 14.507 32 32 32s32-14.507 32-32v-213.333c0-17.493-14.507-32-32-32zM512 234.667c-5.547 0-11.093 1.28-16.213 3.413s-9.813 5.12-14.080 8.96c-3.84 4.267-6.827 8.533-8.96 14.080-2.133 5.12-3.413 10.667-3.413 16.213s1.28 11.093 3.413 16.213c2.133 5.12 5.12 9.813 8.96 14.080 4.267 3.84 8.96 6.827 14.080 8.96 10.24 4.267 22.187 4.267 32.427 0 5.12-2.133 9.813-5.12 14.080-8.96 3.84-4.267 6.827-8.96 8.96-14.080s3.413-10.667 3.413-16.213c0-5.547-1.28-11.093-3.413-16.213-2.133-5.547-5.12-9.813-8.96-14.080-4.267-3.84-8.96-6.827-14.080-8.96s-10.667-3.413-16.213-3.413z" />
<glyph unicode="&#xe90b;" glyph-name="disscount" d="M512.213-10.667c-33.707 0-65.707 17.067-87.893 47.36l-43.093 57.6c-8.96 11.947-20.907 18.773-33.707 19.627s-25.6-5.12-35.84-15.787l-24.32 21.333 23.467-21.76c-61.867-65.707-108.8-60.587-131.413-51.627-23.040 8.96-61.867 38.4-61.867 133.12v480.427c0 189.44 54.613 247.040 233.387 247.040h322.133c178.773 0 233.387-57.6 233.387-247.040v-480.427c0-94.293-38.827-123.733-61.867-133.12-22.613-8.96-69.547-14.080-131.413 51.627-10.24 11.093-23.467 16.64-36.267 15.787s-25.173-7.68-34.133-19.627l-43.093-57.6c-21.76-29.867-53.76-46.933-87.467-46.933zM344.96 177.92c1.707 0 3.84 0 5.547 0 31.573-1.707 61.44-18.347 81.493-45.227l43.52-57.6c20.907-27.733 52.907-27.733 73.813 0l43.093 57.6c20.053 26.88 49.92 43.52 81.92 45.227s63.147-11.52 86.187-36.267c32.427-34.56 53.333-38.827 61.013-35.84 10.24 4.267 21.333 29.013 21.333 73.387v480.427c0 154.027-26.88 183.040-169.387 183.040h-322.56c-142.507 0-169.387-29.013-169.387-183.040v-480.427c0-44.8 11.093-69.547 21.333-73.387 7.68-2.987 28.587 1.28 61.013 35.84 22.187 23.467 51.2 36.267 81.067 36.267zM640.213 362.667c-23.893 0-42.667 19.2-42.667 42.667s19.2 42.667 42.667 42.667c23.467 0 42.667-19.2 42.667-42.667s-18.773-42.667-42.667-42.667zM384.213 576c-23.893 0-42.667 19.2-42.667 42.667s19.2 42.667 42.667 42.667c23.467 0 42.667-19.2 42.667-42.667s-18.773-42.667-42.667-42.667zM368.44 339.2c-8.107 0-16.213 2.987-22.613 9.387-12.373 12.373-12.373 32.853 0 45.227l287.146 287.146c12.373 12.373 32.853 12.373 45.227 0s12.373-32.853 0-45.227l-287.146-287.146c-5.973-6.4-14.080-9.387-22.613-9.387z" />
<glyph unicode="&#xe90c;" glyph-name="truck-fast" d="M554.657 330.666h-42.667c-17.493 0-32 14.507-32 32s14.507 32 32 32h42.667c29.44 0 53.333 23.893 53.333 53.333v394.667h-352.001c-50.347 0-96.428-27.306-121.175-71.252-8.533-15.36-28.158-20.908-43.518-12.375s-20.908 28.161-12.375 43.521c35.84 64 103.681 104.107 177.068 104.107h384.001c17.493 0 32-14.507 32-32v-426.667c0-64.853-52.48-117.333-117.333-117.333zM810.666 74.666h-42.667c-17.493 0-32 14.507-32 32 0 29.44-23.893 53.333-53.333 53.333s-53.333-23.893-53.333-53.333c0-17.493-14.507-32-32-32h-170.667c-17.493 0-32 14.507-32 32 0 29.44-23.893 53.333-53.333 53.333s-53.333-23.893-53.333-53.333c0-17.493-14.507-32-32-32h-42.667c-88.32 0-160 71.68-160 160 0 17.493 14.507 32 32 32s32-14.507 32-32c0-52.907 43.093-96 96-96h14.932c14.080 49.067 59.308 85.333 113.068 85.333s98.987-36.267 113.067-85.333h115.627c14.080 49.067 59.307 85.333 113.067 85.333s98.987-36.267 113.067-85.333h14.507c52.907 0 96 43.093 96 96v96h-96c-40.96 0-74.667 33.707-74.667 74.667v128c0 40.96 33.28 74.667 74.667 74.667l-45.653 79.787c-9.387 16.64-27.307 26.88-46.507 26.88h-46.507v-266.667c0-64.853-52.48-117.333-117.333-117.333h-42.667c-17.493 0-32 14.507-32 32s14.507 32 32 32h42.667c29.44 0 53.333 23.893 53.333 53.333v298.667c0 17.493 14.507 32 32 32h78.507c42.24 0 81.067-22.614 101.973-59.307l72.96-127.573c5.547-9.813 5.547-22.187 0-32s-16.213-15.787-27.733-15.787h-55.040c-5.973 0-10.667-4.693-10.667-10.667v-128c0-5.973 4.693-10.667 10.667-10.667h128c17.493 0 32-14.507 32-32v-128c0-88.32-71.68-160-160-160zM341.332-10.668c-64.853 0-117.333 52.48-117.333 117.333s52.48 117.333 117.333 117.333c64.853 0 117.333-52.48 117.333-117.333s-52.48-117.333-117.333-117.333zM341.332 159.999c-29.44 0-53.333-23.893-53.333-53.333s23.893-53.333 53.333-53.333c29.44 0 53.333 23.893 53.333 53.333s-23.893 53.333-53.333 53.333zM682.666-10.668c-64.853 0-117.333 52.48-117.333 117.333s52.48 117.333 117.333 117.333c64.853 0 117.333-52.48 117.333-117.333s-52.48-117.333-117.333-117.333zM682.666 159.999c-29.44 0-53.333-23.893-53.333-53.333s23.893-53.333 53.333-53.333c29.44 0 53.333 23.893 53.333 53.333s-23.893 53.333-53.333 53.333zM938.666 330.666h-128c-40.96 0-74.667 33.707-74.667 74.667v128c0 40.96 33.707 74.667 74.667 74.667h55.040c11.52 0 22.187-5.973 27.733-16.213l72.96-128c2.56-4.693 4.267-10.24 4.267-15.787v-85.333c0-17.493-14.507-32-32-32zM810.666 543.999c-5.973 0-10.667-4.693-10.667-10.667v-128c0-5.973 4.693-10.667 10.667-10.667h96v44.8l-59.733 104.533h-36.267zM341.332 586.666h-256c-17.493 0-32 14.507-32 32s14.507 32 32 32h256c17.493 0 32-14.507 32-32s-14.507-32-32-32zM255.999 458.666h-170.667c-17.493 0-32 14.507-32 32s14.507 32 32 32h170.667c17.493 0 32-14.507 32-32s-14.507-32-32-32zM170.666 330.666h-85.333c-17.493 0-32 14.507-32 32s14.507 32 32 32h85.333c17.493 0 32-14.507 32-32s-14.507-32-32-32z" />
<glyph unicode="&#xe90d;" glyph-name="close-square" d="M391.226 295.236c-8.107 0-16.213 2.987-22.613 9.387-12.373 12.373-12.373 32.853 0 45.227l241.494 241.495c12.373 12.373 32.853 12.373 45.227 0s12.373-32.853 0-45.227l-241.495-241.495c-5.973-6.4-14.507-9.387-22.613-9.387zM632.721 295.236c-8.107 0-16.213 2.987-22.613 9.387l-241.494 241.495c-12.373 12.373-12.373 32.853 0 45.227s32.853 12.373 45.226 0l241.495-241.495c12.373-12.373 12.373-32.853 0-45.227-6.4-6.4-14.507-9.387-22.613-9.387zM640-10.667h-256c-231.68 0-330.667 98.987-330.667 330.667v256c0 231.68 98.987 330.667 330.667 330.667h256c231.68 0 330.667-98.987 330.667-330.667v-256c0-231.68-98.987-330.667-330.667-330.667zM384 842.667c-196.693 0-266.667-69.973-266.667-266.667v-256c0-196.693 69.973-266.667 266.667-266.667h256c196.693 0 266.667 69.973 266.667 266.667v256c0 196.693-69.973 266.667-266.667 266.667h-256z" />
<glyph unicode="&#xe90e;" glyph-name="money-send" d="M556.8 266.658h-80.213c-56.746 0-103.253 47.787-103.253 106.667 0 17.493 14.507 32 32 32s32-14.507 32-32c0-23.467 17.493-42.667 39.253-42.667h80.213c16.64 0 29.867 14.933 29.867 33.28 0 23.040-6.4 26.453-20.907 31.573l-128.427 44.8c-27.307 9.813-64 29.44-64 92.16 0 53.332 42.24 97.279 93.867 97.279h80.213c56.747 0 103.253-47.787 103.253-106.665 0-17.493-14.507-32-32-32s-32 14.507-32 32c0 23.465-17.493 42.665-39.253 42.665h-80.213c-16.64 0-29.867-14.933-29.867-33.279 0-23.040 6.4-26.453 20.907-31.573l128.427-44.8c27.307-9.813 64-29.44 64-92.16 0-53.76-42.24-97.28-93.867-97.28zM512 224c-17.493 0-32 14.507-32 32v384c0 17.493 14.507 32 32 32s32-14.507 32-32v-384c0-17.493-14.507-32-32-32zM512-10.667c-253.013 0-458.667 205.653-458.667 458.667s205.653 458.667 458.667 458.667c17.493 0 32-14.507 32-32s-14.507-32-32-32c-217.6 0-394.667-177.067-394.667-394.667s177.067-394.667 394.667-394.667c217.6 0 394.667 177.067 394.667 394.667 0 17.493 14.507 32 32 32s32-14.507 32-32c0-253.013-205.653-458.667-458.667-458.667zM938.667 672c-17.493 0-32 14.507-32 32v138.667h-138.667c-17.493 0-32 14.507-32 32s14.507 32 32 32h170.667c17.493 0 32-14.507 32-32v-170.667c0-17.493-14.507-32-32-32zM725.312 629.315c-8.107 0-16.213 2.987-22.613 9.387-12.373 12.373-12.373 32.853 0 45.227l213.333 213.333c12.373 12.373 32.853 12.373 45.227 0s12.373-32.853 0-45.227l-213.333-213.333c-6.4-6.4-14.507-9.387-22.613-9.387z" />
<glyph unicode="&#xe90f;" glyph-name="location" horiz-adv-x="1067" d="M533.42 355.609c-90.88 0-165.122 73.813-165.122 165.12 0 91.305 74.242 164.692 165.122 164.692s165.12-73.813 165.12-165.119c0-91.307-74.24-164.693-165.12-164.693zM533.42 621.421c-55.467 0-101.12-45.227-101.12-101.119s45.227-101.12 101.12-101.12 101.12 45.227 101.12 101.12c0 55.892-45.653 101.119-101.12 101.119zM533.369-10.88c-63.147 0-126.72 23.893-176.214 71.253-125.867 121.173-264.96 314.453-212.48 544.427 47.36 208.64 229.547 302.080 388.694 302.080 0 0 0 0 0.427 0 159.147 0 341.333-93.44 388.693-302.507 52.053-229.973-87.040-422.827-212.907-544-49.493-47.36-113.067-71.253-176.213-71.253zM533.369 842.88c-124.16 0-283.734-66.133-325.974-252.16-46.080-200.96 80.213-374.187 194.56-483.84 73.814-71.253 189.44-71.253 263.254 0 113.92 109.653 240.213 282.88 194.987 483.84-42.667 186.027-202.667 252.16-326.827 252.16z" />
<glyph unicode="&#xe911;" glyph-name="dislike" d="M456.263-22.11c-13.498 0-26.996 2.327-39.564 6.982-58.182 19.084-95.418 83.316-82.385 142.895l22.807 146.618c0.465 3.258 0.465 7.913-2.793 11.636-2.327 2.327-5.585 3.724-9.309 3.724h-186.182c-45.615 0-85.178 19.084-108.451 52.131-22.807 32.116-27.462 74.473-12.567 115.433l111.244 338.851c17.222 67.491 89.367 121.949 163.84 121.949h176.875c26.065 0 82.851-7.913 113.105-38.167l141.033-108.916-42.822-55.389-144.291 111.709c-11.636 11.636-40.96 20.945-67.025 20.945h-176.875c-41.891 0-87.040-33.513-96.349-71.215l-112.64-342.11c-7.447-20.48-6.051-39.098 3.724-52.596 10.24-14.429 28.858-22.807 51.665-22.807h186.182c24.204 0 46.545-10.24 61.905-27.927 15.825-18.153 22.807-42.356 19.084-67.491l-23.273-149.411c-5.585-26.065 12.102-55.389 37.236-63.767 22.342-8.378 52.133 3.724 62.373 18.618l190.836 283.927 57.716-39.098-190.836-283.927c-21.876-32.582-63.302-52.596-104.264-52.596zM866.772 164.091h-46.545c-86.109 0-128 40.495-128 123.345v456.145c0 82.851 41.891 123.345 128 123.345h46.545c86.109 0 128-40.495 128-123.345v-456.145c0-82.851-41.891-123.345-128-123.345zM820.227 797.109c-50.735 0-58.182-12.102-58.182-53.527v-456.145c0-41.425 7.447-53.527 58.182-53.527h46.545c50.735 0 58.182 12.102 58.182 53.527v456.145c0 41.425-7.447 53.527-58.182 53.527h-46.545z" />
<glyph unicode="&#xe913;" glyph-name="minus" horiz-adv-x="983" d="M737.26 417.28h-491.52c-16.794 0-30.72 13.926-30.72 30.72s13.926 30.72 30.72 30.72h491.52c16.794 0 30.72-13.926 30.72-30.72s-13.926-30.72-30.72-30.72z" />
<glyph unicode="&#xe914;" glyph-name="plus" d="M682.667 416h-341.333c-17.493 0-32 14.507-32 32s14.507 32 32 32h341.333c17.493 0 32-14.507 32-32s-14.507-32-32-32zM512 245.333c-17.493 0-32 14.507-32 32v341.333c0 17.493 14.507 32 32 32s32-14.507 32-32v-341.333c0-17.493-14.507-32-32-32z" />
<glyph unicode="&#xe915;" glyph-name="shopping-cart" horiz-adv-x="1067" d="M807.602 202.667h-454.4c-42.24 0-82.773 17.92-111.36 49.067s-43.093 72.96-39.68 115.2l35.413 424.96c1.28 13.227-3.414 26.026-12.374 35.84s-21.333 14.934-34.56 14.934h-73.813c-17.493 0-32 14.507-32 32s14.507 32 32 32h74.24c31.147 0 60.586-13.227 81.492-35.84 11.52-12.8 20.054-27.733 24.747-44.373h532.907c43.093 0 82.773-17.067 111.787-47.787 28.587-31.147 43.093-71.68 39.68-114.773l-23.040-320c-4.693-78.080-72.96-141.227-151.040-141.227zM299.442 762.88l-33.28-401.067c-2.133-24.747 5.973-48.213 22.613-66.56s39.68-28.16 64.426-28.16h454.4c44.373 0 84.48 37.547 87.893 81.92l23.040 320c1.707 25.173-6.4 49.067-23.040 66.56-16.64 17.92-39.68 27.734-64.853 27.734l-531.2-0.427zM724.829-10.667c-46.933 0-85.333 38.4-85.333 85.333s38.4 85.333 85.333 85.333c46.933 0 85.333-38.4 85.333-85.333s-38.4-85.333-85.333-85.333zM724.829 96c-11.947 0-21.333-9.387-21.333-21.333s9.387-21.333 21.333-21.333c11.947 0 21.333 9.387 21.333 21.333s-9.387 21.333-21.333 21.333zM383.495-10.667c-46.933 0-85.333 38.4-85.333 85.333s38.4 85.333 85.333 85.333c46.933 0 85.333-38.4 85.333-85.333s-38.4-85.333-85.333-85.333zM383.495 96c-11.947 0-21.333-9.387-21.333-21.333s9.387-21.333 21.333-21.333c11.947 0 21.333 9.387 21.333 21.333s-9.387 21.333-21.333 21.333zM927.495 586.667h-512c-17.493 0-32 14.507-32 32s14.507 32 32 32h512c17.493 0 32-14.507 32-32s-14.507-32-32-32z" />
<glyph unicode="&#xe918;" glyph-name="like" d="M711.096-22.156h-176.873c-26.065 0-82.85 7.913-113.104 38.167l-141.033 108.916 42.822 55.389 144.29-111.709c11.636-11.171 40.96-20.48 67.025-20.48h176.873c41.891 0 87.040 33.513 96.349 71.215l112.64 342.109c7.447 20.48 6.051 39.099-3.724 52.597-10.24 14.429-28.858 22.807-51.665 22.807h-186.182c-24.204 0-46.545 10.24-61.905 27.927-15.825 18.153-22.807 42.356-19.084 67.491l23.273 149.411c5.585 26.065-12.102 55.389-37.236 63.767-22.807 8.378-52.131-3.724-62.371-18.618l-190.835-283.927-57.716 38.633 190.836 283.927c29.322 43.753 93.555 64.698 143.824 45.615 58.182-19.084 95.418-83.316 82.385-142.895l-22.807-146.618c-0.465-3.258-0.465-7.913 2.793-11.636 2.327-2.327 5.585-3.724 9.309-3.724h186.182c45.615 0 85.178-19.084 108.451-52.131 22.807-32.116 27.462-74.474 12.567-115.434l-111.244-338.851c-17.222-67.491-88.902-121.949-163.84-121.949zM203.775 29.048h-46.545c-86.109 0-128 40.495-128 123.345v456.146c0 82.851 41.891 123.345 128 123.345h46.545c86.109 0 128-40.495 128-123.345v-456.146c0-82.851-41.891-123.345-128-123.345zM157.23 662.067c-50.735 0-58.182-12.102-58.182-53.527v-456.146c0-41.425 7.447-53.527 58.182-53.527h46.545c50.735 0 58.182 12.102 58.182 53.527v456.146c0 41.425-7.447 53.527-58.182 53.527h-46.545z" />
<glyph unicode="&#xe919;" glyph-name="arrow-circle-left" d="M512-10.667c-253.013 0-458.667 205.653-458.667 458.667s205.653 458.667 458.667 458.667c253.013 0 458.667-205.653 458.667-458.667s-205.653-458.667-458.667-458.667zM512 842.667c-217.6 0-394.667-177.067-394.667-394.667s177.067-394.667 394.667-394.667c217.6 0 394.667 177.067 394.667 394.667s-177.067 394.667-394.667 394.667zM661.333 416h-256c-17.493 0-32 14.507-32 32s14.507 32 32 32h256c17.493 0 32-14.507 32-32s-14.507-32-32-32zM490.645 287.983c-8.107 0-16.213 2.987-22.613 9.387l-128.002 128c-12.373 12.373-12.373 32.853 0 45.227l128.002 127.999c12.373 12.373 32.853 12.373 45.227 0s12.373-32.853 0-45.227l-105.389-105.385 105.389-105.387c12.373-12.373 12.373-32.853 0-45.227-6.4-6.4-14.507-9.387-22.613-9.387z" />
<glyph unicode="&#xe91a;" glyph-name="arrow-circle-right" d="M512-10.667c-253.013 0-458.667 205.653-458.667 458.667s205.653 458.667 458.667 458.667c253.013 0 458.667-205.653 458.667-458.667s-205.653-458.667-458.667-458.667zM512 842.667c-217.6 0-394.667-177.067-394.667-394.667s177.067-394.667 394.667-394.667c217.6 0 394.667 177.067 394.667 394.667s-177.067 394.667-394.667 394.667zM618.667 416h-256c-17.493 0-32 14.507-32 32s14.507 32 32 32h256c17.493 0 32-14.507 32-32s-14.507-32-32-32zM533.35 287.983c-8.107 0-16.213 2.987-22.613 9.387-12.373 12.373-12.373 32.853 0 45.227l105.387 105.387-105.387 105.385c-12.373 12.373-12.373 32.853 0 45.227s32.853 12.373 45.227 0l128-127.999c12.373-12.373 12.373-32.853 0-45.227l-128-128c-6.4-6.4-14.507-9.387-22.613-9.387z" />
<glyph unicode="&#xe91c;" glyph-name="phone-speaker" horiz-adv-x="940" d="M479.626 874.669c47.846 0 86.637-42.981 86.637-96v-370.065c-14.177-2.171-28.089-9.536-39.533-23.061l-55.444-65.532h-59.043c-21.266 0-38.504-19.103-38.504-42.667v-85.341h-86.637c-15.949 0-28.879-14.328-28.879-32.001 0-17.671 12.93-31.999 28.879-31.999h91.792c6.658-12.75 19.099-21.324 33.349-21.324h59.043l55.444-65.528c0.773-0.913 1.555-1.797 2.345-2.65-14.020-10.821-31.065-17.166-49.449-17.166h-288.787c-47.847 0-86.636 42.983-86.636 96.001v661.333c0 53.019 38.788 96 86.636 96h288.787zM802.806 349.801c-12.637 23.33-25.602 39.297-35.155 48.115-12.252 11.314-30.463 9.479-40.674-4.096-10.211-13.577-8.556-33.754 3.697-45.069 4.886-4.51 13.579-15.216 22.601-31.882 15.456-28.545 24.764-62.92 24.764-103.535s-9.308-74.99-24.764-103.535c-9.022-16.67-17.715-27.37-22.601-31.884-12.252-11.312-13.908-31.489-3.697-45.069 10.211-13.577 28.421-15.412 40.674-4.096 9.552 8.823 22.518 24.785 35.155 48.118 20.643 38.124 32.992 83.746 32.992 136.466s-12.349 98.342-32.992 136.466zM715.434 303.086c-9.206 15.304-18.697 25.817-25.955 31.851-12.758 10.602-30.858 7.739-40.431-6.401-9.567-14.14-6.98-34.197 5.776-44.799 2.372-1.973 7.321-7.454 12.553-16.15 9.009-14.975 14.401-32.904 14.401-54.251 0-21.345-5.392-39.274-14.401-54.251-5.233-8.696-10.181-14.181-12.553-16.148l-3.222-3.116c-9.904-11.088-11.251-28.833-2.554-41.685 9.573-14.14 27.673-17.003 40.431-6.399 7.258 6.029 16.75 16.545 25.955 31.851 15.055 25.023 24.102 55.095 24.102 89.748 0 34.655-9.047 64.725-24.102 89.75zM604.767 330.669c0 13.329-7.458 25.264-18.72 29.951-11.262 4.69-23.97 1.154-31.89-8.882l-58.755-74.403h-54.28c-15.949 0-28.879-14.328-28.879-31.999v-64c0-17.673 12.93-32.001 28.879-32.001h54.28l58.755-74.407c7.92-10.033 20.628-13.571 31.89-8.882s18.72 16.622 18.72 29.955v234.667z" />
<glyph unicode="&#xe91d;" glyph-name="play" fill="none" horiz-adv-x="856" d="M821.257 507.693l-733.799 428.184c-8.962 5.168-18.187 8.269-28.73 8.269-28.73 0-52.188-23.257-52.188-51.682h-0.264v-888.928h0.264c0-28.425 23.458-51.682 52.188-51.682 10.807 0 19.768 3.618 29.521 8.786l733.008 427.668c17.396 14.212 28.467 35.66 28.467 59.692s-11.071 45.221-28.467 59.692z" />
<glyph unicode="&#xe91e;" glyph-name="bookmark" horiz-adv-x="628" d="M0.193 936.938c0 12.162 9.859 22.022 22.022 22.022h583.57c12.162 0 22.022-9.859 22.022-22.022v-977.712c0-21.384-27.809-30.248-40.837-13.291-218.388 284.234-350.498 283.982-545.134 6.92-12.617-17.96-41.643-9.274-41.643 12.673v971.409z" />
<glyph unicode="&#xe91f;" glyph-name="bookmark-small" horiz-adv-x="623" d="M-0.151 854.091c0 49.177 39.866 89.043 89.043 89.043h445.217c49.179 0 89.043-39.866 89.043-89.043v-806.672c0-89.133-121.348-124.483-188.199-65.532-83.156 73.327-156.233 81.341-232.984 24.856-73.565-54.143-202.121-21.304-202.121 70.042v777.305z" />
<glyph unicode="&#xe920;" glyph-name="arrow-left" d="M427.337 447.9l334.4-348.199c8.4-8.602 8.199-22.8-0.403-31.599l-59.798-61.2c-8.602-8.803-22.599-9.001-30.999-0.403l-408.401 425.401c-4.4 4.4-6.4 10.399-6 16.2-0.2 5.999 1.8 11.801 6 16.2l408.401 425.199c8.4 8.6 22.397 8.4 30.999-0.4l59.798-61.2c8.602-8.8 8.803-23 0.403-31.6l-334.4-348.4z" />
<glyph unicode="&#xe921;" glyph-name="arrow-right" d="M596.662 448.1l-334.399 348.199c-8.4 8.6-8.2 22.8 0.4 31.6l59.8 61.2c8.6 8.8 22.6 9 30.999 0.4l408.399-425.4c4.4-4.4 6.402-10.399 6.003-16.2 0.198-5.999-1.801-11.801-6.003-16.2l-408.399-425.2c-8.399-8.598-22.399-8.4-30.999 0.403l-59.8 61.2c-8.6 8.799-8.8 22.998-0.4 31.599l334.399 348.4z" />
<glyph unicode="&#xe922;" glyph-name="magic" horiz-adv-x="1270" d="M997.285 682.702l-87.667 72.874c-13.361 11.105-30.892 17.12-49.541 17.12-18.645 0-36.458-6.015-49.537-17.12l-778.15-647.078c-27.274-22.675-27.274-59.691 0-82.362l87.667-72.872c13.637-11.338 31.727-17.121 49.539-17.121 18.090 0 35.902 5.784 49.539 17.121l778.428 647.078c27.275 22.672 27.275 59.688-0.279 82.36zM930.77 641.522l-761.174-632.737-70.412 58.532 761.171 632.736 70.414-58.531zM195.792 719.486l82.936-37.71 45.364-68.941c12.524-18.739 36.18-30.538 62.063-30.538s49.54 11.799 62.062 30.538l45.363 68.941 82.936 37.71c22.544 10.411 36.737 30.075 36.737 51.591s-14.193 41.18-36.737 51.59l-82.936 37.71-45.363 68.942c-12.521 18.739-36.179 30.538-62.062 30.538s-49.539-11.799-62.063-30.538l-45.364-68.942-82.936-37.71c-22.543-10.41-36.737-30.075-36.737-51.59s14.193-41.18 36.737-51.591zM349.418 824.98l36.737 55.986 36.736-55.986c6.402-9.948 16.142-18.045 28.111-23.366l67.351-30.538-67.351-30.538c-11.969-5.321-21.43-13.418-28.111-23.366l-36.736-55.986-36.737 55.986c-6.401 9.948-16.142 18.045-28.109 23.366l-67.351 30.538 67.351 30.538c11.967 5.553 21.708 13.65 28.109 23.366zM1224.392 382.414l-47.313 21.516-25.883 39.326c-11.411 17.355-33.12 27.996-56.775 27.996-23.658 0-45.646-10.641-56.775-27.996l-25.883-39.326-47.313-21.516c-20.873-9.486-33.677-27.529-33.677-47.194s12.804-37.941 33.677-47.198l47.313-21.512 25.883-39.33c11.407-17.351 33.116-27.992 56.775-27.992 23.654 0 45.642 10.641 56.775 27.992l25.883 39.33 47.313 21.512c20.873 9.486 33.673 27.533 33.673 47.198s-12.8 37.708-33.673 47.194zM1107.5 302.829l-13.079-19.665-13.083 19.898c-5.845 9.019-14.75 16.425-25.883 21.512l-23.654 10.875 23.654 10.875c10.854 4.858 19.759 12.259 25.883 21.512l13.083 19.665 13.079-19.894c5.845-9.023 14.75-16.425 25.883-21.283l23.658-10.875-23.937-10.875c-10.576-5.321-19.481-12.722-25.604-21.746z" />
</font>
</defs>
</svg>
